<?xml version="1.0" standalone="no"?>
<!DOCTYPE svg PUBLIC "-//W3C//DTD SVG 1.1//EN" "http://www.w3.org/Graphics/SVG/1.1/DTD/svg11.dtd" >
<svg xmlns="http://www.w3.org/2000/svg" xmlns:xlink="http://www.w3.org/1999/xlink" version="1.1">
<metadata></metadata>
<defs>
<font id="e-ukrainelight" horiz-adv-x="1440" >
<font-face units-per-em="2048" ascent="1638" descent="-410" />
<missing-glyph horiz-adv-x="640" />
<glyph unicode="&#x3c;&#x433;&#x440;&#x43d;&#x3e;" d="M120 528v144h360l212 176h-572v144h732q51 51 73.5 93.5t22.5 90.5q0 84 -68 136t-176 52q-95 0 -176.5 -53.5t-139.5 -150.5l-160 108q79 130 201 201t271 71q203 0 325.5 -95t122.5 -249q0 -117 -68 -204h240v-144h-384l-212 -176h596v-144h-748q-92 -74 -92 -176 q0 -93 68.5 -142.5t199.5 -49.5q205 0 352 200l152 -104q-97 -135 -231 -205.5t-281 -70.5q-207 0 -333.5 93.5t-126.5 246.5q0 116 80 208h-240z" />
<glyph horiz-adv-x="0" />
<glyph horiz-adv-x="682" />
<glyph unicode="&#xd;" horiz-adv-x="640" />
<glyph unicode=" "  horiz-adv-x="640" />
<glyph unicode="&#x09;" horiz-adv-x="640" />
<glyph unicode="&#xa0;" horiz-adv-x="640" />
<glyph unicode="!" horiz-adv-x="688" d="M204 0v280h280v-280h-280zM224 1520h240l-44 -1040h-152z" />
<glyph unicode="&#x22;" horiz-adv-x="816" d="M100 1520h216l-24 -520h-168zM500 1520h216l-24 -520h-168z" />
<glyph unicode="#" d="M100 384v200h260v352h-260v200h260v384h176v-384h368v384h176v-384h260v-200h-260v-352h260v-200h-260v-384h-176v384h-368v-384h-176v384h-260zM536 584h368v352h-368v-352z" />
<glyph unicode="$" horiz-adv-x="1404" d="M96 200l128 160q167 -161 400 -192v524q-89 27 -153.5 51.5t-129 61t-104 78.5t-64.5 101.5t-25 131.5q0 177 128 289.5t348 130.5v144h152v-144q258 -12 468 -172l-124 -164q-149 130 -344 152v-492q273 -72 388.5 -170.5t115.5 -257.5q0 -189 -134.5 -308t-369.5 -140 v-160h-152v156q-314 18 -528 220zM356 1128q0 -79 60 -131.5t208 -96.5v452q-124 -12 -196 -72t-72 -152zM776 168q139 12 217.5 75.5t78.5 164.5q0 83 -62.5 135t-233.5 105v-480z" />
<glyph unicode="%" horiz-adv-x="2136" d="M120 1080q0 210 108.5 335t291.5 125t291.5 -125t108.5 -335t-108.5 -335t-291.5 -125t-291.5 125t-108.5 335zM288 1080q0 -141 63.5 -226.5t168.5 -85.5t168.5 85.5t63.5 226.5t-63.5 226.5t-168.5 85.5t-168.5 -85.5t-63.5 -226.5zM500 0l964 1520h172l-964 -1520 h-172zM1216 440q0 210 108.5 335t291.5 125t291.5 -125t108.5 -335t-108.5 -335t-291.5 -125t-291.5 125t-108.5 335zM1384 440q0 -141 63.5 -226.5t168.5 -85.5t168.5 85.5t63.5 226.5t-63.5 226.5t-168.5 85.5t-168.5 -85.5t-63.5 -226.5z" />
<glyph unicode="&#x26;" horiz-adv-x="1928" d="M100 396q0 156 91 259t289 169q-90 114 -127 194.5t-37 161.5q0 159 119.5 259.5t308.5 100.5q201 0 324.5 -96t123.5 -252q0 -137 -105.5 -251.5t-290.5 -184.5q183 -194 372 -356q167 180 216 448l192 -44q-66 -305 -260 -524q167 -124 240 -124q55 0 83 45t41 139 l172 -40q-12 -150 -92 -235t-212 -85q-147 0 -376 172q-236 -172 -524 -172q-255 0 -401.5 110.5t-146.5 305.5zM308 396q0 -105 98 -168.5t258 -63.5q198 0 360 112q-189 164 -424 416q-292 -83 -292 -296zM508 1160q0 -57 34.5 -114t133.5 -162q148 39 230 115t82 177 q0 90 -66.5 143t-177.5 53q-102 0 -169 -61t-67 -151z" />
<glyph unicode="'" horiz-adv-x="416" d="M100 1520h216l-24 -520h-168z" />
<glyph unicode="(" horiz-adv-x="920" d="M188 680q0 312 145 575t391 401l76 -100q-192 -150 -300 -381t-108 -495t108 -495t300 -381l-76 -100q-246 138 -391 401t-145 575z" />
<glyph unicode=")" horiz-adv-x="920" d="M188 -196q192 150 300 381t108 495t-108 495t-300 381l76 100q246 -138 391 -401t145 -575t-145 -575t-391 -401z" />
<glyph unicode="*" horiz-adv-x="952" d="M100 1280l40 124l272 -88v284h128v-284l272 88l40 -128l-272 -88l168 -228l-104 -76l-168 228l-168 -228l-104 76l168 232z" />
<glyph unicode="+" d="M180 672v176h448v452h184v-452h448v-176h-448v-452h-184v452h-448z" />
<glyph unicode="," horiz-adv-x="600" d="M160 0v280h280v-280q0 -140 -64 -210t-176 -70h-40v136h40q53 0 76.5 29.5t23.5 90.5v24h-140z" />
<glyph unicode="-" horiz-adv-x="960" d="M140 580v200h680v-200h-680z" />
<glyph unicode="." horiz-adv-x="600" d="M160 0v280h280v-280h-280z" />
<glyph unicode="/" horiz-adv-x="920" d="M-80 -80l888 1680h192l-888 -1680h-192z" />
<glyph unicode="0" d="M120 760q0 354 163.5 567t436.5 213t436.5 -213t163.5 -567t-163.5 -567t-436.5 -213t-436.5 213t-163.5 567zM324 760q0 -273 108 -436.5t288 -163.5t288 163.5t108 436.5t-108 436.5t-288 163.5t-288 -163.5t-108 -436.5z" />
<glyph unicode="1" horiz-adv-x="900" d="M60 1108v156h60q137 0 209.5 23t106.5 76.5t44 156.5h140v-1520h-200v1108h-360z" />
<glyph unicode="2" horiz-adv-x="1204" d="M60 0v128l524 480q157 145 226.5 257.5t69.5 222.5q0 123 -79 199.5t-205 76.5q-151 0 -241.5 -90.5t-102.5 -257.5l-188 40q21 224 167.5 354t372.5 130q213 0 346.5 -122.5t133.5 -317.5q0 -144 -96.5 -289t-311.5 -339l-316 -284h764v-188h-1064z" />
<glyph unicode="3" horiz-adv-x="1220" d="M20 300l156 96q111 -240 376 -240q171 0 267.5 87.5t96.5 240.5q0 135 -79.5 217.5t-208.5 82.5q-104 0 -176 -48l-108 112l464 488h-724v184h992v-144l-428 -444h28q192 0 318 -126.5t126 -321.5q0 -216 -157.5 -360t-394.5 -144q-192 0 -335.5 83.5t-212.5 236.5z" />
<glyph unicode="4" horiz-adv-x="1280" d="M60 388v156l708 976h240v-960h252v-172h-252v-388h-200v388h-748zM272 560h536v740z" />
<glyph unicode="5" horiz-adv-x="1248" d="M64 260l144 104q52 -92 153 -150t219 -58q165 0 266.5 96t101.5 252t-94 252t-250 96q-103 0 -183.5 -44t-128.5 -128l-156 48l68 792h832v-184h-672l-36 -424q114 108 300 108q225 0 372.5 -145.5t147.5 -370.5q0 -231 -158 -377.5t-410 -146.5q-174 0 -310 75.5 t-206 204.5z" />
<glyph unicode="6" horiz-adv-x="1304" d="M120 740q0 126 21.5 240t69.5 217.5t119 178.5t177.5 119.5t236.5 44.5q140 0 263.5 -53.5t204.5 -158.5l-136 -128q-120 168 -332 168q-98 0 -176 -36t-127 -95t-81 -139t-44.5 -163.5t-11.5 -174.5v-24q66 111 180.5 171.5t255.5 60.5q145 0 260.5 -56.5t183.5 -167 t68 -256.5t-76 -263.5t-200 -181t-268 -63.5q-123 0 -223.5 42t-167 113.5t-112 169.5t-65.5 206.5t-20 228.5zM368 484q0 -149 94.5 -240.5t245.5 -91.5q145 0 248.5 90.5t103.5 233.5q0 147 -96.5 235.5t-243.5 88.5q-148 0 -250 -87.5t-102 -228.5z" />
<glyph unicode="7" horiz-adv-x="1116" d="M20 1336v184h1096v-144q-261 -240 -412.5 -604.5t-151.5 -771.5h-208q0 386 153.5 747.5t386.5 588.5h-864z" />
<glyph unicode="8" horiz-adv-x="1296" d="M100 400q0 130 72.5 224.5t203.5 143.5q-111 48 -171.5 138t-60.5 210q0 193 137 308.5t367 115.5t367 -115.5t137 -308.5q0 -120 -60.5 -210t-171.5 -138q131 -49 203.5 -143.5t72.5 -224.5q0 -189 -150 -304.5t-398 -115.5t-398 115.5t-150 304.5zM296 412 q0 -123 96.5 -197.5t255.5 -74.5t255.5 74.5t96.5 197.5t-96 195.5t-256 72.5t-256 -72.5t-96 -195.5zM340 1108q0 -123 83.5 -195.5t224.5 -72.5t224.5 72.5t83.5 195.5t-83.5 197.5t-224.5 74.5t-224.5 -74.5t-83.5 -197.5z" />
<glyph unicode="9" horiz-adv-x="1304" d="M52 1032q0 146 76 263.5t200 181t268 63.5q123 0 223.5 -42t167 -113.5t112 -169.5t65.5 -206.5t20 -228.5q0 -126 -21.5 -240t-69.5 -217.5t-119 -178.5t-177.5 -119.5t-236.5 -44.5q-140 0 -263.5 53.5t-204.5 158.5l136 128q120 -168 332 -168q98 0 176 36t127 95 t81 139t44.5 163.5t11.5 174.5v24q-66 -111 -180.5 -171.5t-255.5 -60.5q-145 0 -260.5 56.5t-183.5 167t-68 256.5zM244 1044q0 -147 96.5 -235.5t243.5 -88.5q148 0 250 87.5t102 228.5q0 149 -94.5 240.5t-245.5 91.5q-145 0 -248.5 -90.5t-103.5 -233.5z" />
<glyph unicode=":" horiz-adv-x="600" d="M160 0v280h280v-280h-280zM160 920v280h280v-280h-280z" />
<glyph unicode=";" horiz-adv-x="600" d="M160 0v280h280v-280q0 -140 -64 -210t-176 -70h-40v136h40q53 0 76.5 29.5t23.5 90.5v24h-140zM160 920v280h280v-280h-280z" />
<glyph unicode="&#x3c;" d="M180 664v192l1080 432v-188l-836 -332l836 -336v-200z" />
<glyph unicode="=" d="M180 408v176h1080v-176h-1080zM180 936v176h1080v-176h-1080z" />
<glyph unicode="&#x3e;" d="M180 232v188l836 336l-836 332v200l1080 -432v-192z" />
<glyph unicode="?" horiz-adv-x="1220" d="M80 1056q21 219 168 351.5t372 132.5q216 0 348 -120.5t132 -315.5q0 -123 -61.5 -223t-202.5 -205q-91 -70 -129.5 -119t-38.5 -97v-20h-160q-6 114 31.5 183.5t160.5 168.5q114 93 155 156t41 144q0 128 -75.5 200t-208.5 72q-147 0 -239.5 -94.5t-104.5 -253.5zM456 0 v280h280v-280h-280z" />
<glyph unicode="@" horiz-adv-x="1716" d="M120 412q0 173 59.5 323.5t163 256.5t249 167t312.5 61q279 0 443.5 -144.5t164.5 -387.5v-432q0 -42 19 -61t61 -19h44v-176q-7 -3 -36 -7t-32 -1q-111 0 -161 44t-59 152q-66 -96 -181 -152t-247 -56q-174 0 -283 98.5t-109 257.5q0 66 20 120t50 91.5t80.5 68.5 t93 48.5t108 33.5t107 22.5t105.5 15.5q57 9 86 15t63 15.5t48.5 21.5t14.5 28q0 95 -111.5 167.5t-292.5 72.5q-273 0 -440.5 -176.5t-167.5 -467.5q0 -300 178.5 -476t481.5 -176q223 0 388 112l80 -144q-219 -128 -476 -128q-179 0 -332.5 60.5t-261.5 167t-169 257.5 t-61 327zM728 340q0 -92 56.5 -142t159.5 -50q150 0 263 90.5t113 213.5v196q-57 -37 -236 -68q-48 -8 -76 -13t-70.5 -15.5t-68 -21.5t-56 -29t-46.5 -39.5t-27.5 -52.5t-11.5 -69z" />
<glyph unicode="A" horiz-adv-x="1560" d="M32 0l624 1520h248l624 -1520h-220l-152 380h-756l-152 -380h-216zM472 564h608l-304 760z" />
<glyph unicode="B" horiz-adv-x="1520" d="M240 0v1520h668q210 0 335 -110.5t125 -293.5q0 -229 -188 -336q106 -51 163 -145t57 -219q0 -189 -128 -302.5t-344 -113.5h-688zM440 184h440q312 0 312 252t-312 252h-440v-504zM440 872h436q288 0 288 232t-288 232h-436v-464z" />
<glyph unicode="C" horiz-adv-x="1540" d="M120 760q0 227 90 405t252 276.5t370 98.5q232 0 395.5 -116.5t232.5 -331.5l-192 -68q-48 162 -159.5 247t-276.5 85q-223 0 -361.5 -163.5t-138.5 -432.5q0 -275 135.5 -435.5t364.5 -160.5q165 0 276.5 85t159.5 247l192 -68q-66 -209 -232.5 -328.5t-395.5 -119.5 q-324 0 -518 213t-194 567z" />
<glyph unicode="D" horiz-adv-x="1640" d="M240 0v1520h540q352 0 546 -205t194 -555q0 -224 -87.5 -395.5t-256 -268t-396.5 -96.5h-540zM448 184h332q244 0 386 156.5t142 419.5t-142 419.5t-386 156.5h-332v-1152z" />
<glyph unicode="E" horiz-adv-x="1360" d="M240 0v1520h1020v-188h-812v-460h632v-184h-632v-500h832v-188h-1040z" />
<glyph unicode="F" horiz-adv-x="1312" d="M240 0v1520h1032v-188h-824v-460h644v-184h-644v-688h-208z" />
<glyph unicode="G" horiz-adv-x="1664" d="M120 760q0 228 92.5 405.5t260.5 276t383 98.5q229 0 393 -106t239 -306l-192 -72q-51 146 -164 223t-276 77q-235 0 -379.5 -163.5t-144.5 -432.5q0 -275 135.5 -435.5t364.5 -160.5q85 0 164 26t147.5 76t116.5 133t64 189h-424v172h604v-760h-156l-20 228 q-88 -119 -215.5 -183.5t-284.5 -64.5q-321 0 -514.5 213t-193.5 567z" />
<glyph unicode="H" horiz-adv-x="1720" d="M240 0v1520h208v-644h824v644h208v-1520h-208v684h-824v-684h-208z" />
<glyph unicode="I" horiz-adv-x="688" d="M240 0v1520h208v-1520h-208z" />
<glyph unicode="J" horiz-adv-x="1056" d="M0 276l180 76q16 -90 72 -141t152 -51q108 0 166 69.5t58 198.5v1092h208v-1088q0 -211 -120.5 -331.5t-323.5 -120.5q-142 0 -246.5 76t-145.5 220z" />
<glyph unicode="K" horiz-adv-x="1552" d="M240 0v1520h208v-760l760 760h260l-636 -624l680 -896h-256l-572 752l-236 -232v-520h-208z" />
<glyph unicode="L" horiz-adv-x="1340" d="M240 0v1520h208v-1328h832v-192h-1040z" />
<glyph unicode="M" horiz-adv-x="2120" d="M240 0v1520h332l492 -1288l488 1288h328v-1520h-200v1300l-500 -1300h-240l-500 1300v-1300h-200z" />
<glyph unicode="N" horiz-adv-x="1720" d="M240 0v1520h208l836 -1188v1188h196v-1520h-204l-840 1196v-1196h-196z" />
<glyph unicode="O" horiz-adv-x="1680" d="M120 760q0 227 91 405t255 276.5t374 98.5q327 0 523.5 -213t196.5 -567q0 -227 -91 -405t-255 -276.5t-374 -98.5q-327 0 -523.5 213t-196.5 567zM332 760q0 -270 138.5 -433t369.5 -163t369.5 163t138.5 433t-138.5 433t-369.5 163t-369.5 -163t-138.5 -433z" />
<glyph unicode="P" horiz-adv-x="1472" d="M240 0v1520h628q240 0 382 -125t142 -335t-142 -335t-382 -125h-420v-600h-208zM448 788h396q336 0 336 272t-336 272h-396v-544z" />
<glyph unicode="Q" horiz-adv-x="1680" d="M120 760q0 227 91 405t255 276.5t374 98.5q327 0 523.5 -213t196.5 -567q0 -316 -171 -527.5t-449 -244.5v-88q0 -128 144 -128q40 0 102 2t90 2v-172q-96 -12 -200 -12q-158 0 -245 74.5t-87 245.5v72q-286 33 -455 241.5t-169 534.5zM332 760q0 -270 138.5 -433 t369.5 -163t369.5 163t138.5 433t-138.5 433t-369.5 163t-369.5 -163t-138.5 -433z" />
<glyph unicode="R" horiz-adv-x="1536" d="M240 0v1520h608q237 0 378.5 -124.5t141.5 -331.5q0 -155 -81.5 -265.5t-226.5 -158.5l396 -640h-240l-372 608h-400v-608h-204zM444 788h376q336 0 336 272t-336 272h-376v-544z" />
<glyph unicode="S" horiz-adv-x="1392" d="M96 200l128 160q99 -96 224.5 -146t263.5 -50q168 0 264 65t96 179q0 62 -31.5 104t-109 79t-223.5 77q-77 22 -129 38.5t-116 41t-105.5 48t-85 57.5t-68.5 71t-40.5 86t-15.5 106q0 194 154 309t410 115q301 0 532 -176l-124 -164q-175 156 -428 156 q-153 0 -244.5 -61.5t-91.5 -166.5q0 -93 84 -149.5t300 -110.5q294 -72 417 -171.5t123 -264.5q0 -208 -160.5 -330t-435.5 -122q-172 0 -323.5 56.5t-264.5 163.5z" />
<glyph unicode="T" horiz-adv-x="1400" d="M40 1328v192h1320v-192h-556v-1328h-208v1328h-556z" />
<glyph unicode="U" horiz-adv-x="1680" d="M220 592v928h208v-928q0 -195 111.5 -311.5t300.5 -116.5t300.5 116.5t111.5 311.5v928h208v-928q0 -279 -169 -445.5t-451 -166.5t-451 166.5t-169 445.5z" />
<glyph unicode="V" horiz-adv-x="1536" d="M60 1520h220l492 -1288l488 1288h216l-588 -1520h-240z" />
<glyph unicode="W" horiz-adv-x="2216" d="M80 1520h212l352 -1212l348 1212h232l352 -1220l356 1220h204l-440 -1520h-220l-372 1264l-368 -1264h-216z" />
<glyph unicode="X" horiz-adv-x="1488" d="M40 0l580 780l-540 740h248l420 -588l420 588h240l-536 -732l576 -788h-248l-456 632l-460 -632h-244z" />
<glyph unicode="Y" horiz-adv-x="1448" d="M20 1520h240l468 -716l464 716h236l-600 -908v-612h-208v612z" />
<glyph unicode="Z" horiz-adv-x="1412" d="M100 0v172l944 1156h-900v192h1168v-172l-944 -1156h944v-192h-1212z" />
<glyph unicode="[" horiz-adv-x="920" d="M240 -240v1840h520v-160h-336v-1520h336v-160h-520z" />
<glyph unicode="\" horiz-adv-x="920" d="M-80 1600h192l888 -1680h-192z" />
<glyph unicode="]" horiz-adv-x="960" d="M280 -80h336v1520h-336v160h520v-1840h-520v160z" />
<glyph unicode="^" d="M232 760l392 760h192l392 -760h-196l-292 580l-296 -580h-192z" />
<glyph unicode="_" horiz-adv-x="1000" d="M0 -48h1000v-192h-1000v192z" />
<glyph unicode="`" horiz-adv-x="640" d="M124 1600h260l116 -280h-148z" />
<glyph unicode="a" horiz-adv-x="1268" d="M80 336q0 60 17 110.5t43.5 87t68.5 66.5t84 49.5t98 35.5t101.5 25t103.5 18q172 27 226 50.5t54 93.5q0 80 -73.5 128t-194.5 48q-105 0 -203 -43t-173 -121l-124 128q208 208 508 208q208 0 328 -104.5t120 -287.5v-572q0 -42 19 -61t61 -19h44v-176q-16 -8 -68 -8 q-111 0 -161 44t-59 152q-67 -95 -181 -151.5t-247 -56.5q-174 0 -283 98.5t-109 257.5zM280 340q0 -92 56.5 -142t159.5 -50q150 0 263 90.5t113 213.5v184q-30 -22 -82 -34.5t-166 -29.5q-39 -6 -57 -9.5t-53.5 -11t-54 -13t-47.5 -16.5t-44.5 -22t-35 -27.5t-29 -35.5 t-16.5 -43.5t-7 -53.5z" />
<glyph unicode="b" horiz-adv-x="1448" d="M200 0v1600h200v-580q72 96 177.5 148t230.5 52q240 0 386 -169.5t146 -450.5q0 -274 -150 -447t-382 -173q-274 0 -424 212l-16 -192h-168zM384 600q0 -201 102.5 -322.5t273.5 -121.5t273.5 121.5t102.5 322.5t-102.5 322.5t-273.5 121.5t-273.5 -121.5t-102.5 -322.5z " />
<glyph unicode="c" horiz-adv-x="1304" d="M108 600q0 275 165 447.5t427 172.5q192 0 334.5 -95.5t189.5 -264.5l-188 -60q-42 115 -129.5 179.5t-206.5 64.5q-179 0 -283.5 -121t-104.5 -323t104.5 -323t283.5 -121q119 0 208.5 64.5t131.5 179.5l184 -60q-50 -169 -192.5 -264.5t-331.5 -95.5q-262 0 -427 172.5 t-165 447.5z" />
<glyph unicode="d" horiz-adv-x="1448" d="M108 600q0 274 150 447t382 173q129 0 234 -49.5t174 -142.5v572h200v-1600h-168l-16 200q-72 -105 -182 -162.5t-242 -57.5q-240 0 -386 169.5t-146 450.5zM312 600q0 -201 102.5 -322.5t273.5 -121.5t273.5 121.5t102.5 322.5t-102.5 322.5t-273.5 121.5t-273.5 -121.5 t-102.5 -322.5z" />
<glyph unicode="e" horiz-adv-x="1364" d="M108 600q0 275 164.5 447.5t423.5 172.5q258 0 413 -169t155 -451q0 -44 -4 -64h-948q18 -175 124 -277.5t276 -102.5q258 0 372 164l144 -124q-73 -96 -201 -156t-311 -60q-189 0 -328.5 81t-209.5 220.5t-70 318.5zM316 696h740q-21 163 -117.5 257.5t-242.5 94.5 q-155 0 -255.5 -94.5t-124.5 -257.5z" />
<glyph unicode="f" horiz-adv-x="908" d="M60 1028v172h252v104q0 147 98.5 231.5t269.5 84.5q170 0 308 -96l-96 -156q-94 76 -224 76q-74 0 -115 -39t-41 -109v-96h348v-172h-348v-1028h-200v1028h-252z" />
<glyph unicode="g" horiz-adv-x="1448" d="M108 632q0 260 150 424t382 164q136 0 245 -53.5t179 -150.5l16 184h168l-4 -1092q0 -234 -154 -381t-414 -147q-306 0 -476 176l120 140q70 -76 154.5 -108t201.5 -32q103 0 178.5 28t118.5 79t63 113.5t20 139.5v128q-73 -94 -181 -147t-235 -53q-240 0 -386 160.5 t-146 427.5zM312 632q0 -189 102.5 -302.5t273.5 -113.5t273.5 113.5t102.5 302.5q0 186 -102.5 299t-273.5 113t-273.5 -113t-102.5 -299z" />
<glyph unicode="h" horiz-adv-x="1436" d="M200 0v1600h200v-576q70 92 178 144t238 52q196 0 318 -127t122 -333v-760h-200v700q0 164 -76 254t-212 90q-155 0 -261.5 -99t-106.5 -253v-692h-200z" />
<glyph unicode="i" horiz-adv-x="640" d="M208 1376v224h224v-224h-224zM220 0v1200h200v-1200h-200z" />
<glyph unicode="j" horiz-adv-x="620" d="M0 -216q32 -4 92 -4q65 0 96.5 31t31.5 101v1288h200v-1296q0 -166 -80.5 -239t-227.5 -73q-48 0 -112 8v184zM208 1376v224h224v-224h-224z" />
<glyph unicode="k" horiz-adv-x="1264" d="M200 0v1600h200v-956l584 556h256l-516 -484l540 -716h-248l-436 580l-180 -168v-412h-200z" />
<glyph unicode="l" horiz-adv-x="600" d="M200 0v1600h200v-1600h-200z" />
<glyph unicode="m" horiz-adv-x="2228" d="M200 0v1200h168l16 -192q64 100 172 156t244 56t233.5 -63.5t146.5 -176.5q64 112 179.5 176t260.5 64q194 0 311 -126t117 -334v-760h-200v700q0 166 -69 255t-203 89q-154 0 -253 -98.5t-99 -253.5v-692h-200v700q0 166 -69 255t-203 89q-154 0 -253 -98.5t-99 -253.5 v-692h-200z" />
<glyph unicode="n" d="M200 0v1200h168l16 -200q67 103 181.5 161.5t254.5 58.5q196 0 318 -127t122 -333v-760h-200v700q0 164 -76 254t-212 90q-158 0 -265 -99t-107 -253v-692h-200z" />
<glyph unicode="o" horiz-adv-x="1416" d="M108 600q0 275 167.5 447.5t432.5 172.5q273 0 436.5 -169t163.5 -451q0 -275 -167.5 -447.5t-432.5 -172.5q-273 0 -436.5 169t-163.5 451zM312 600q0 -201 108 -322.5t288 -121.5t288 121.5t108 322.5t-108 322.5t-288 121.5t-288 -121.5t-108 -322.5z" />
<glyph unicode="p" horiz-adv-x="1448" d="M200 -400v1600h168l16 -200q72 105 182 162.5t242 57.5q240 0 386 -169.5t146 -450.5q0 -274 -150 -447t-382 -173q-129 0 -234 49.5t-174 142.5v-572h-200zM384 600q0 -201 102.5 -322.5t273.5 -121.5t273.5 121.5t102.5 322.5t-102.5 322.5t-273.5 121.5t-273.5 -121.5 t-102.5 -322.5z" />
<glyph unicode="q" horiz-adv-x="1448" d="M108 600q0 274 150 447t382 173q274 0 424 -212l16 192h168v-1600h-200v580q-72 -96 -177.5 -148t-230.5 -52q-240 0 -386 169.5t-146 450.5zM312 600q0 -201 102.5 -322.5t273.5 -121.5t273.5 121.5t102.5 322.5t-102.5 322.5t-273.5 121.5t-273.5 -121.5t-102.5 -322.5 z" />
<glyph unicode="r" horiz-adv-x="940" d="M200 0v1200h168l16 -200q66 103 180.5 161.5t251.5 58.5q28 0 84 -8v-196q-44 4 -140 4q-152 0 -256 -96t-104 -244v-680h-200z" />
<glyph unicode="s" horiz-adv-x="1152" d="M80 168l116 140q152 -152 392 -152q129 0 200.5 43t71.5 121q0 69 -64.5 111.5t-235.5 84.5q-234 60 -331 140.5t-97 215.5q0 156 126 252t330 96q249 0 440 -148l-120 -156q-134 128 -328 128q-115 0 -183.5 -42t-68.5 -114q0 -63 63.5 -104.5t224.5 -83.5 q240 -66 338 -147.5t98 -216.5q0 -162 -127.5 -259t-340.5 -97q-304 0 -504 188z" />
<glyph unicode="t" horiz-adv-x="976" d="M56 1028v172h236l32 320h168v-320h380v-172h-380v-688q0 -99 41.5 -135.5t138.5 -36.5t200 28v-188q-112 -28 -232 -28q-170 0 -259 83.5t-89 240.5v724h-236z" />
<glyph unicode="u" d="M180 440v760h200v-700q0 -164 76 -254t212 -90q158 0 265 99t107 253v692h200v-1200h-168l-16 200q-67 -103 -181.5 -161.5t-254.5 -58.5q-196 0 -318 127t-122 333z" />
<glyph unicode="v" horiz-adv-x="1264" d="M40 1200h220l376 -988l376 988h212l-480 -1200h-224z" />
<glyph unicode="w" horiz-adv-x="1872" d="M60 1200h204l284 -956l288 956h204l292 -960l284 960h196l-376 -1200h-216l-284 940l-284 -940h-216z" />
<glyph unicode="x" horiz-adv-x="1304" d="M60 0l468 612l-440 588h244l328 -444l332 444h232l-440 -584l460 -616h-244l-348 476l-356 -476h-236z" />
<glyph unicode="y" horiz-adv-x="1284" d="M32 1200h220l440 -1052l360 1052h208l-460 -1264q-27 -74 -62 -135.5t-81 -112.5t-107 -79.5t-130 -28.5q-155 0 -237 95q-79 92 -79 231v10l180 32v-19q0 -165 136 -165q55 0 97 36.5t79 111.5z" />
<glyph unicode="z" horiz-adv-x="1176" d="M80 0v176l752 852h-716v172h960v-176l-748 -852h768v-172h-1016z" />
<glyph unicode="{" horiz-adv-x="920" d="M120 600v160h64q62 0 89 41.5t27 130.5v428q0 117 61.5 178.5t178.5 61.5h220v-160h-196q-80 0 -80 -80v-440q0 -191 -128 -240q128 -49 128 -240v-440q0 -80 80 -80h196v-160h-220q-117 0 -178.5 61.5t-61.5 178.5v428q0 89 -27 130.5t-89 41.5h-64z" />
<glyph unicode="|" horiz-adv-x="664" d="M240 -240v1840h184v-1840h-184z" />
<glyph unicode="}" horiz-adv-x="920" d="M120 -80h196q80 0 80 80v440q0 191 128 240q-128 49 -128 240v440q0 80 -80 80h-196v160h220q117 0 178.5 -61.5t61.5 -178.5v-428q0 -89 27 -130.5t89 -41.5h64v-160h-64q-62 0 -89 -41.5t-27 -130.5v-428q0 -117 -61.5 -178.5t-178.5 -61.5h-220v160z" />
<glyph unicode="~" d="M140 720q134 212 336 212q60 0 115 -17.5t98 -42t84.5 -49t91 -42t99.5 -17.5q113 0 208 148l128 -112q-134 -212 -336 -212q-60 0 -115 17.5t-98 42t-84.5 49t-91 42t-99.5 17.5q-113 0 -208 -148z" />
<glyph unicode="&#xa2;" horiz-adv-x="1316" d="M108 760q0 250 138.5 418t365.5 198v144h152v-144q170 -15 293 -108.5t167 -247.5l-188 -60q-36 99 -106 160.5t-166 79.5v-880q97 18 168.5 80t107.5 160l184 -60q-47 -154 -170 -247.5t-290 -108.5v-144h-152v144q-227 30 -365.5 198t-138.5 418zM312 760 q0 -174 79.5 -290t220.5 -146v872q-141 -30 -220.5 -146t-79.5 -290z" />
<glyph unicode="&#xa3;" d="M40 224q0 117 78 182.5t202 65.5q79 0 156 -32q-5 125 -60 248h-292v144h220q-39 78 -59.5 145t-20.5 147q0 193 132 304.5t348 111.5q206 0 336.5 -111.5t155.5 -292.5l-188 -52q-18 135 -96.5 209.5t-211.5 74.5q-126 0 -205 -66.5t-79 -181.5q0 -45 15 -98.5t30.5 -89 t46.5 -100.5h420v-144h-356q48 -130 48 -244q0 -36 -8 -100q24 -16 73 -52t76 -53.5t66.5 -40t73.5 -32.5t67 -10q66 0 100 43.5t40 136.5l188 -28q-9 -166 -83 -247t-217 -81q-67 0 -128 16t-120.5 50t-96 60t-95.5 74q-49 -94 -127 -147t-173 -53q-113 0 -184.5 69 t-71.5 175zM192 224q0 -45 33 -68.5t79 -23.5q117 0 156 144q-75 44 -148 44q-55 0 -87.5 -25.5t-32.5 -70.5z" />
<glyph unicode="&#xa5;" horiz-adv-x="1488" d="M20 1520h240l468 -716l464 716h236l-512 -776h252v-144h-340v-176h340v-144h-340v-280h-208v280h-300v144h300v176h-300v144h212z" />
<glyph unicode="&#xa8;" horiz-adv-x="640" d="M136 1376v224h224v-224h-224zM520 1376v224h224v-224h-224z" />
<glyph unicode="&#xa9;" horiz-adv-x="1800" d="M120 760q0 167 58.5 312t161.5 248t248 161.5t312 58.5t312 -58.5t248 -161.5t161.5 -248t58.5 -312t-58.5 -312t-161.5 -248t-248 -161.5t-312 -58.5t-312 58.5t-248 161.5t-161.5 248t-58.5 312zM264 760q0 -186 81 -333t226 -229t329 -82t329 82t226 229t81 333 t-81 333t-226 229t-329 82t-329 -82t-226 -229t-81 -333zM504 760q0 186 114 305t294 119q131 0 227.5 -66t132.5 -178l-172 -64q-24 66 -73 103t-115 37q-102 0 -161 -69.5t-59 -186.5t59 -186.5t161 -69.5q66 0 115 37t73 103l172 -64q-36 -112 -132.5 -178t-227.5 -66 q-180 0 -294 119t-114 305z" />
<glyph unicode="&#xab;" horiz-adv-x="1360" d="M160 576v208l480 344v-224l-304 -220l304 -220v-232zM680 576v208l480 344v-224l-304 -220l304 -220v-232z" />
<glyph unicode="&#xad;" horiz-adv-x="960" d="M140 580v200h680v-200h-680z" />
<glyph unicode="&#xae;" horiz-adv-x="1120" d="M160 1140q0 174 113 287t287 113t287 -113t113 -287t-113 -287t-287 -113t-287 113t-113 287zM256 1140q0 -132 86 -218t218 -86t218 86t86 218t-86 218t-218 86t-218 -86t-86 -218zM396 940v408h184q64 0 106 -36t42 -92q0 -71 -56 -96q40 -13 40 -60v-4q0 -20 20 -20h8 v-100h-48q-39 0 -61.5 22.5t-22.5 61.5v20q0 18 -7 25t-25 7h-76v-136h-104zM500 1176h72q48 0 48 36t-48 36h-72v-72z" />
<glyph unicode="&#xb4;" horiz-adv-x="640" d="M380 1320l116 280h260l-228 -280h-148z" />
<glyph unicode="&#xb8;" horiz-adv-x="640" d="M200 -356l72 108q102 -68 188 -68q51 0 79.5 17t28.5 47q0 26 -23 41t-57 15q-44 0 -84 -20l-108 60l96 156h148l-60 -96q20 4 52 4q87 0 141.5 -44.5t54.5 -123.5q0 -78 -76 -129t-196 -51q-69 0 -137 22.5t-119 61.5z" />
<glyph unicode="&#xbb;" horiz-adv-x="1360" d="M200 232v224l304 220l-304 220v232l480 -344v-208zM720 232v224l304 220l-304 220v232l480 -344v-208z" />
<glyph unicode="&#x2c6;" horiz-adv-x="640" d="M108 1320l228 280h216l228 -280h-188l-148 152l-148 -152h-188z" />
<glyph unicode="&#x2da;" horiz-adv-x="640" d="M188 1568q0 108 72 178t180 70t180 -70t72 -178t-72 -178t-180 -70t-180 70t-72 178zM324 1568q0 -51 32.5 -83.5t83.5 -32.5t83.5 32.5t32.5 83.5t-32.5 83.5t-83.5 32.5t-83.5 -32.5t-32.5 -83.5z" />
<glyph unicode="&#x2dc;" horiz-adv-x="640" d="M88 1436q36 89 93.5 134.5t130.5 45.5q50 0 98.5 -25t88.5 -50t69 -25q64 0 104 96l128 -72q-36 -89 -93.5 -134.5t-130.5 -45.5q-50 0 -98.5 25t-88.5 50t-69 25q-64 0 -104 -96z" />
<glyph unicode="&#x401;" horiz-adv-x="1360" d="M240 0v1520h1020v-188h-812v-460h632v-184h-632v-500h832v-188h-1040zM436 1696v224h224v-224h-224zM820 1696v224h224v-224h-224z" />
<glyph unicode="&#x404;" horiz-adv-x="1540" d="M120 760q0 227 90 405t252 276.5t370 98.5q232 0 395.5 -116.5t232.5 -331.5l-192 -68q-48 162 -159.5 247t-276.5 85q-201 0 -337 -131t-163 -353h648v-184h-652q18 -243 153 -383.5t351 -140.5q165 0 276.5 85t159.5 247l192 -68q-66 -209 -232.5 -328.5t-395.5 -119.5 q-324 0 -518 213t-194 567z" />
<glyph unicode="&#x406;" horiz-adv-x="688" d="M240 0v1520h208v-1520h-208z" />
<glyph unicode="&#x407;" horiz-adv-x="688" d="M40 1696v224h224v-224h-224zM240 0v1520h208v-1520h-208zM424 1696v224h224v-224h-224z" />
<glyph unicode="&#x40e;" horiz-adv-x="1536" d="M52 1520h240l548 -1048l412 1048h224l-524 -1252q-117 -288 -356 -288q-140 0 -225 88t-91 236l184 44q6 -95 38.5 -141.5t97.5 -46.5q108 0 148 100zM420 1908l160 32q6 -81 54.5 -124.5t129.5 -43.5t129.5 43.5t54.5 124.5l160 -32q-15 -131 -105.5 -203.5 t-238.5 -72.5t-238.5 72.5t-105.5 203.5z" />
<glyph unicode="&#x410;" horiz-adv-x="1560" d="M32 0l624 1520h248l624 -1520h-220l-152 380h-756l-152 -380h-216zM472 564h608l-304 760z" />
<glyph unicode="&#x411;" horiz-adv-x="1500" d="M240 0v1520h1040v-188h-832v-412h428q240 0 382 -125t142 -335t-142 -335t-382 -125h-636zM448 184h400q340 0 340 276t-340 276h-400v-552z" />
<glyph unicode="&#x412;" horiz-adv-x="1520" d="M240 0v1520h668q210 0 335 -110.5t125 -293.5q0 -229 -188 -336q106 -51 163 -145t57 -219q0 -189 -128 -302.5t-344 -113.5h-688zM440 184h440q312 0 312 252t-312 252h-440v-504zM440 872h436q288 0 288 232t-288 232h-436v-464z" />
<glyph unicode="&#x413;" horiz-adv-x="1280" d="M240 0v1520h1000v-192h-792v-1328h-208z" />
<glyph unicode="&#x414;" horiz-adv-x="1688" d="M72 192h152q56 174 56 652v676h1152v-1328h176v-512h-200v320h-1136v-320h-200v512zM428 192h796v1136h-736v-484q0 -392 -60 -652z" />
<glyph unicode="&#x415;" horiz-adv-x="1360" d="M240 0v1520h1020v-188h-812v-460h632v-184h-632v-500h832v-188h-1040z" />
<glyph unicode="&#x416;" horiz-adv-x="2264" d="M40 0l616 908l-608 612h260l720 -736v736h208v-736l720 736h260l-608 -612l616 -908h-252l-512 760l-224 -224v-536h-208v536l-224 224l-512 -760h-252z" />
<glyph unicode="&#x417;" horiz-adv-x="1376" d="M72 352l180 96q51 -133 166.5 -208.5t273.5 -75.5q172 0 274 75.5t102 204.5q0 112 -90.5 178t-245.5 66h-200v184h204q121 0 198.5 59.5t77.5 164.5q0 121 -85 190.5t-239 69.5q-151 0 -253 -72t-155 -200l-192 68q66 178 229 283t375 105q243 0 387.5 -116.5 t144.5 -311.5q0 -110 -53.5 -194.5t-150.5 -133.5q123 -46 189.5 -136t66.5 -220q0 -204 -160.5 -326t-427.5 -122q-224 0 -384.5 100t-231.5 272z" />
<glyph unicode="&#x418;" horiz-adv-x="1720" d="M240 0v1520h208v-1200l824 1200h208v-1520h-208v1208l-828 -1208h-204z" />
<glyph unicode="&#x419;" horiz-adv-x="1720" d="M240 0v1520h208v-1200l824 1200h208v-1520h-208v1208l-828 -1208h-204zM516 1908l160 32q6 -81 54.5 -124.5t129.5 -43.5t129.5 43.5t54.5 124.5l160 -32q-15 -131 -105.5 -203.5t-238.5 -72.5t-238.5 72.5t-105.5 203.5z" />
<glyph unicode="&#x41a;" horiz-adv-x="1552" d="M240 0v1520h208v-760l760 760h260l-636 -624l680 -896h-256l-572 752l-236 -232v-520h-208z" />
<glyph unicode="&#x41b;" horiz-adv-x="1720" d="M112 0v200h64q29 0 46 2t37 8t31 19.5t23.5 35t18.5 56.5t13 81t9.5 112.5t4 146.5t1.5 187v672h1120v-1520h-208v1328h-704v-484q0 -170 -5 -286t-18 -217t-35.5 -162t-60 -104.5t-88 -61t-121.5 -17.5q-88 0 -128 4z" />
<glyph unicode="&#x41c;" horiz-adv-x="2120" d="M240 0v1520h332l492 -1288l488 1288h328v-1520h-200v1300l-500 -1300h-240l-500 1300v-1300h-200z" />
<glyph unicode="&#x41d;" horiz-adv-x="1720" d="M240 0v1520h208v-644h824v644h208v-1520h-208v684h-824v-684h-208z" />
<glyph unicode="&#x41e;" horiz-adv-x="1680" d="M120 760q0 227 91 405t255 276.5t374 98.5q327 0 523.5 -213t196.5 -567q0 -227 -91 -405t-255 -276.5t-374 -98.5q-327 0 -523.5 213t-196.5 567zM332 760q0 -270 138.5 -433t369.5 -163t369.5 163t138.5 433t-138.5 433t-369.5 163t-369.5 -163t-138.5 -433z" />
<glyph unicode="&#x41f;" horiz-adv-x="1720" d="M240 0v1520h1240v-1520h-208v1328h-824v-1328h-208z" />
<glyph unicode="&#x420;" horiz-adv-x="1472" d="M240 0v1520h628q240 0 382 -125t142 -335t-142 -335t-382 -125h-420v-600h-208zM448 788h396q336 0 336 272t-336 272h-396v-544z" />
<glyph unicode="&#x421;" horiz-adv-x="1540" d="M120 760q0 227 90 405t252 276.5t370 98.5q232 0 395.5 -116.5t232.5 -331.5l-192 -68q-48 162 -159.5 247t-276.5 85q-223 0 -361.5 -163.5t-138.5 -432.5q0 -275 135.5 -435.5t364.5 -160.5q165 0 276.5 85t159.5 247l192 -68q-66 -209 -232.5 -328.5t-395.5 -119.5 q-324 0 -518 213t-194 567z" />
<glyph unicode="&#x422;" horiz-adv-x="1400" d="M40 1328v192h1320v-192h-556v-1328h-208v1328h-556z" />
<glyph unicode="&#x423;" horiz-adv-x="1536" d="M52 1520h240l548 -1048l412 1048h224l-524 -1252q-117 -288 -356 -288q-140 0 -225 88t-91 236l184 44q6 -95 38.5 -141.5t97.5 -46.5q108 0 148 100z" />
<glyph unicode="&#x424;" horiz-adv-x="1928" d="M100 780q0 132 45 242.5t129 189.5t209.5 123.5t280.5 44.5h96v164h208v-164h96q316 0 490 -161.5t174 -438.5q0 -132 -45 -242.5t-129 -189.5t-209.5 -123.5t-280.5 -44.5h-96v-204h-208v204h-96q-316 0 -490 161.5t-174 438.5zM312 780q0 -209 115 -314.5t341 -105.5 h92v840h-92q-217 0 -336.5 -110t-119.5 -310zM1068 360h92q217 0 336.5 110t119.5 310q0 209 -115 314.5t-341 105.5h-92v-840z" />
<glyph unicode="&#x425;" horiz-adv-x="1488" d="M40 0l580 780l-540 740h248l420 -588l420 588h240l-536 -732l576 -788h-248l-456 632l-460 -632h-244z" />
<glyph unicode="&#x426;" horiz-adv-x="1696" d="M240 0v1520h208v-1328h784v1328h208v-1328h176v-512h-200v320h-1176z" />
<glyph unicode="&#x427;" horiz-adv-x="1584" d="M160 1080v440h208v-440q0 -140 81 -208t247 -68h440v716h208v-1520h-208v612h-452q-254 0 -389 119t-135 349z" />
<glyph unicode="&#x428;" horiz-adv-x="2384" d="M240 0v1520h208v-1328h640v1328h208v-1328h640v1328h208v-1520h-1904z" />
<glyph unicode="&#x429;" horiz-adv-x="2400" d="M240 0v1520h208v-1328h640v1328h208v-1328h640v1328h208v-1328h176v-512h-200v320h-1880z" />
<glyph unicode="&#x42a;" horiz-adv-x="1700" d="M40 1328v192h608v-600h428q240 0 382 -125t142 -335t-142 -335t-382 -125h-636v1328h-400zM648 188h404q336 0 336 272t-336 272h-404v-544z" />
<glyph unicode="&#x42b;" horiz-adv-x="2108" d="M240 0v1520h208v-600h428q240 0 382 -125t142 -335t-142 -335t-382 -125h-636zM448 188h404q336 0 336 272t-336 272h-404v-544zM1660 0v1520h208v-1520h-208z" />
<glyph unicode="&#x42c;" horiz-adv-x="1500" d="M240 0v1520h208v-600h428q240 0 382 -125t142 -335t-142 -335t-382 -125h-636zM448 188h404q336 0 336 272t-336 272h-404v-544z" />
<glyph unicode="&#x42d;" horiz-adv-x="1520" d="M60 428l192 68q48 -162 159.5 -247t276.5 -85q211 0 348.5 142.5t155.5 381.5h-652v184h648q-27 225 -160 354.5t-340 129.5q-165 0 -276.5 -85t-159.5 -247l-192 68q68 213 236.5 330.5t391.5 117.5q324 0 518 -213t194 -567q0 -227 -90 -405t-252 -276.5t-370 -98.5 q-229 0 -395.5 119.5t-232.5 328.5z" />
<glyph unicode="&#x42e;" horiz-adv-x="2280" d="M240 0v1520h208v-644h320q33 298 222 481t470 183q318 0 509 -213t191 -567q0 -227 -88.5 -405t-248 -276.5t-363.5 -98.5q-299 0 -487 191t-209 513h-316v-684h-208zM972 760q0 -270 133 -433t355 -163t355 163t133 433t-133 433t-355 163t-355 -163t-133 -433z" />
<glyph unicode="&#x42f;" horiz-adv-x="1540" d="M80 0l396 640q-145 48 -226.5 158.5t-81.5 265.5q0 207 141.5 331.5t378.5 124.5h612v-1520h-208v608h-400l-372 -608h-240zM380 1060q0 -272 336 -272h376v544h-376q-336 0 -336 -272z" />
<glyph unicode="&#x430;" horiz-adv-x="1268" d="M80 336q0 60 17 110.5t43.5 87t68.5 66.5t84 49.5t98 35.5t101.5 25t103.5 18q172 27 226 50.5t54 93.5q0 80 -73.5 128t-194.5 48q-105 0 -203 -43t-173 -121l-124 128q208 208 508 208q208 0 328 -104.5t120 -287.5v-572q0 -42 19 -61t61 -19h44v-176q-16 -8 -68 -8 q-111 0 -161 44t-59 152q-67 -95 -181 -151.5t-247 -56.5q-174 0 -283 98.5t-109 257.5zM280 340q0 -92 56.5 -142t159.5 -50q150 0 263 90.5t113 213.5v184q-30 -22 -82 -34.5t-166 -29.5q-39 -6 -57 -9.5t-53.5 -11t-54 -13t-47.5 -16.5t-44.5 -22t-35 -27.5t-29 -35.5 t-16.5 -43.5t-7 -53.5z" />
<glyph unicode="&#x431;" horiz-adv-x="1372" d="M128 660q0 357 126.5 544t405.5 244l284 60q34 6 52 26t24 58l4 28l192 -36l-4 -36q-12 -175 -208 -224l-344 -68q-304 -61 -340 -360q66 93 179 142.5t257 49.5q219 0 364 -156t148 -396q3 -243 -156 -399.5t-408 -156.5q-263 0 -419.5 185t-156.5 495zM336 544 q0 -171 103 -279.5t265 -108.5t261 102.5t99 273.5q0 176 -98.5 280t-261.5 104q-168 0 -268 -100.5t-100 -271.5z" />
<glyph unicode="&#x432;" horiz-adv-x="1292" d="M200 0v1200h524q196 0 306 -77.5t110 -234.5q0 -194 -168 -272q200 -75 200 -292q0 -157 -106.5 -240.5t-297.5 -83.5h-568zM396 168h356q102 0 159 48t57 132q0 87 -62.5 137.5t-173.5 50.5h-336v-368zM396 696h328q114 0 163 39.5t49 132.5q0 80 -51 122t-145 42h-344 v-336z" />
<glyph unicode="&#x433;" horiz-adv-x="1080" d="M200 0v1200h840v-184h-640v-1016h-200z" />
<glyph unicode="&#x434;" d="M72 176h132q44 132 44 524v500h956v-1024h156v-456h-188v280h-912v-280h-188v456zM400 176h604v848h-560v-336q0 -317 -44 -512z" />
<glyph unicode="&#x435;" horiz-adv-x="1364" d="M108 600q0 275 164.5 447.5t423.5 172.5q258 0 413 -169t155 -451q0 -44 -4 -64h-948q18 -175 124 -277.5t276 -102.5q258 0 372 164l144 -124q-73 -96 -201 -156t-311 -60q-189 0 -328.5 81t-209.5 220.5t-70 318.5zM316 696h740q-21 163 -117.5 257.5t-242.5 94.5 q-155 0 -255.5 -94.5t-124.5 -257.5z" />
<glyph unicode="&#x436;" horiz-adv-x="1888" d="M20 0l512 724l-488 476h256l544 -548v548h200v-548l544 548h256l-488 -476l512 -724h-248l-404 584l-172 -168v-416h-200v416l-172 172l-404 -588h-248z" />
<glyph unicode="&#x437;" horiz-adv-x="1120" d="M48 308l184 68q44 -110 129.5 -167t198.5 -57q129 0 204.5 50.5t75.5 137.5t-68.5 135.5t-191.5 48.5h-148v176h140q107 0 163.5 45t56.5 127q0 87 -59.5 133.5t-168.5 46.5q-105 0 -178.5 -52.5t-109.5 -151.5l-188 72q55 139 181.5 219.5t298.5 80.5q189 0 305 -94 t119 -250q0 -178 -156 -256q102 -30 157 -103t55 -181q0 -159 -135.5 -257.5t-356.5 -98.5q-188 0 -321 87t-187 241z" />
<glyph unicode="&#x438;" d="M200 0v1200h196v-932l632 932h212v-1200h-196v932l-632 -932h-212z" />
<glyph unicode="&#x439;" d="M200 0v1200h196v-932l632 932h212v-1200h-196v932l-632 -932h-212zM376 1588l160 32q6 -81 54.5 -124.5t129.5 -43.5t129.5 43.5t54.5 124.5l160 -32q-15 -131 -105.5 -203.5t-238.5 -72.5t-238.5 72.5t-105.5 203.5z" />
<glyph unicode="&#x43a;" horiz-adv-x="1264" d="M200 0v1200h200v-556l584 556h256l-516 -484l540 -716h-248l-436 580l-180 -168v-412h-200z" />
<glyph unicode="&#x43b;" horiz-adv-x="1408" d="M60 0v184h56q33 0 52 3t38.5 16t29 37.5t18 69t11.5 108.5t3 158v624h940v-1200h-200v1024h-544v-472q0 -219 -32 -341.5t-96 -170.5t-176 -48q-60 0 -100 8z" />
<glyph unicode="&#x43c;" horiz-adv-x="1760" d="M200 0v1200h320l364 -984l360 984h316v-1200h-196v1004l-372 -1004h-224l-372 1004v-1004h-196z" />
<glyph unicode="&#x43d;" d="M200 0v1200h200v-496h640v496h200v-1200h-200v520h-640v-520h-200z" />
<glyph unicode="&#x43e;" horiz-adv-x="1416" d="M108 600q0 275 167.5 447.5t432.5 172.5q273 0 436.5 -169t163.5 -451q0 -275 -167.5 -447.5t-432.5 -172.5q-273 0 -436.5 169t-163.5 451zM312 600q0 -201 108 -322.5t288 -121.5t288 121.5t108 322.5t-108 322.5t-288 121.5t-288 -121.5t-108 -322.5z" />
<glyph unicode="&#x43f;" d="M200 0v1200h1040v-1200h-200v1024h-640v-1024h-200z" />
<glyph unicode="&#x440;" horiz-adv-x="1448" d="M200 -400v1600h168l16 -200q72 105 182 162.5t242 57.5q240 0 386 -169.5t146 -450.5q0 -274 -150 -447t-382 -173q-129 0 -234 49.5t-174 142.5v-572h-200zM384 600q0 -201 102.5 -322.5t273.5 -121.5t273.5 121.5t102.5 322.5t-102.5 322.5t-273.5 121.5t-273.5 -121.5 t-102.5 -322.5z" />
<glyph unicode="&#x441;" horiz-adv-x="1304" d="M108 600q0 275 165 447.5t427 172.5q192 0 334.5 -95.5t189.5 -264.5l-188 -60q-42 115 -129.5 179.5t-206.5 64.5q-179 0 -283.5 -121t-104.5 -323t104.5 -323t283.5 -121q119 0 208.5 64.5t131.5 179.5l184 -60q-50 -169 -192.5 -264.5t-331.5 -95.5q-262 0 -427 172.5 t-165 447.5z" />
<glyph unicode="&#x442;" horiz-adv-x="1160" d="M40 1024v176h1080v-176h-440v-1024h-200v1024h-440z" />
<glyph unicode="&#x443;" horiz-adv-x="1284" d="M32 1200h220l440 -1052l360 1052h208l-460 -1264q-27 -74 -62 -135.5t-81 -112.5t-107 -79.5t-130 -28.5q-155 0 -237 95t-79 241l180 32q-8 -184 136 -184q55 0 97 36.5t79 111.5z" />
<glyph unicode="&#x444;" horiz-adv-x="2056" d="M108 600q0 271 133 441.5t339 170.5q228 0 348 -168v556h200v-568q126 180 348 180q214 0 343 -167t129 -445q0 -271 -133 -441.5t-339 -170.5q-229 0 -348 172v-560h-200v568q-130 -180 -348 -180q-214 0 -343 167t-129 445zM312 600q0 -201 86 -322.5t230 -121.5 q141 0 226.5 121.5t85.5 322.5t-85.5 322.5t-226.5 121.5q-144 0 -230 -121.5t-86 -322.5zM1116 600q0 -201 86 -322.5t230 -121.5q141 0 226.5 121.5t85.5 322.5t-85.5 322.5t-226.5 121.5q-144 0 -230 -121.5t-86 -322.5z" />
<glyph unicode="&#x445;" horiz-adv-x="1304" d="M60 0l468 612l-440 588h244l328 -444l332 444h232l-440 -584l460 -616h-244l-348 476l-356 -476h-236z" />
<glyph unicode="&#x446;" horiz-adv-x="1456" d="M200 0v1200h200v-1024h620v1024h200v-1024h156v-456h-188v280h-988z" />
<glyph unicode="&#x447;" horiz-adv-x="1312" d="M120 868v332h200v-332q0 -112 62 -164t202 -52h328v548h200v-1200h-200v468h-328q-223 0 -343.5 106t-120.5 294z" />
<glyph unicode="&#x448;" horiz-adv-x="2000" d="M200 0v1200h200v-1024h500v1024h200v-1024h500v1024h200v-1200h-1600z" />
<glyph unicode="&#x449;" horiz-adv-x="2036" d="M200 0v1200h200v-1024h500v1024h200v-1024h500v1024h200v-1024h156v-456h-188v280h-1568z" />
<glyph unicode="&#x44a;" horiz-adv-x="1432" d="M40 1016v184h540v-472h356q189 0 302.5 -99.5t113.5 -264.5t-113.5 -264.5t-302.5 -99.5h-556v1016h-340zM580 176h344q108 0 166 49t58 139t-58 139t-166 49h-344v-376z" />
<glyph unicode="&#x44b;" horiz-adv-x="1780" d="M200 0v1200h200v-472h356q189 0 302.5 -99.5t113.5 -264.5t-113.5 -264.5t-302.5 -99.5h-556zM400 176h344q108 0 166 49t58 139t-58 139t-166 49h-344v-376zM1380 0v1200h200v-1200h-200z" />
<glyph unicode="&#x44c;" horiz-adv-x="1252" d="M200 0v1200h200v-472h356q189 0 302.5 -99.5t113.5 -264.5t-113.5 -264.5t-302.5 -99.5h-556zM400 176h344q108 0 166 49t58 139t-58 139t-166 49h-344v-376z" />
<glyph unicode="&#x44d;" horiz-adv-x="1308" d="M80 336l184 60q42 -112 133.5 -176t210.5 -64q164 0 267 99t121 269h-548v176h544q-24 160 -125 252t-259 92q-122 0 -214 -64t-134 -176l-180 56q56 168 200.5 264t327.5 96q262 0 427 -172.5t165 -447.5t-165 -447.5t-427 -172.5q-191 0 -334.5 95t-193.5 261z" />
<glyph unicode="&#x44e;" horiz-adv-x="1928" d="M200 0v1200h200v-496h268q30 234 185.5 375t386.5 141q264 0 422 -169t158 -451q0 -275 -162 -447.5t-418 -172.5q-246 0 -400.5 145.5t-175.5 394.5h-264v-520h-200zM864 600q0 -201 102.5 -322.5t273.5 -121.5t273.5 121.5t102.5 322.5t-102.5 322.5t-273.5 121.5 t-273.5 -121.5t-102.5 -322.5z" />
<glyph unicode="&#x44f;" horiz-adv-x="1276" d="M48 0l328 500q-114 36 -179 121.5t-65 202.5q0 169 116.5 272.5t307.5 103.5h520v-1200h-200v472h-292l-308 -472h-228zM332 832q0 -96 63 -150t177 -54h304v400h-304q-113 0 -176.5 -52.5t-63.5 -143.5z" />
<glyph unicode="&#x451;" horiz-adv-x="1364" d="M108 600q0 275 164.5 447.5t423.5 172.5q258 0 413 -169t155 -451q0 -44 -4 -64h-948q18 -175 124 -277.5t276 -102.5q258 0 372 164l144 -124q-73 -96 -201 -156t-311 -60q-189 0 -328.5 81t-209.5 220.5t-70 318.5zM316 696h740q-21 163 -117.5 257.5t-242.5 94.5 q-155 0 -255.5 -94.5t-124.5 -257.5zM380 1376v224h224v-224h-224zM764 1376v224h224v-224h-224z" />
<glyph unicode="&#x454;" horiz-adv-x="1308" d="M108 600q0 275 165 447.5t427 172.5q194 0 335.5 -94.5t192.5 -261.5l-188 -60q-42 112 -131.5 176t-208.5 64q-158 0 -259 -92t-125 -252h544v-176h-548q18 -170 121 -269t267 -99q119 0 210.5 64t133.5 176l184 -60q-50 -166 -193.5 -261t-334.5 -95q-262 0 -427 172.5 t-165 447.5z" />
<glyph unicode="&#x456;" horiz-adv-x="640" d="M208 1376v224h224v-224h-224zM220 0v1200h200v-1200h-200z" />
<glyph unicode="&#x457;" horiz-adv-x="640" d="M16 1376v224h224v-224h-224zM220 0v1200h200v-1200h-200zM400 1376v224h224v-224h-224z" />
<glyph unicode="&#x45e;" horiz-adv-x="1284" d="M32 1200h220l440 -1052l360 1052h208l-460 -1264q-27 -74 -62 -135.5t-81 -112.5t-107 -79.5t-130 -28.5q-155 0 -237 95t-79 241l180 32q-8 -184 136 -184q55 0 97 36.5t79 111.5zM304 1588l160 32q6 -81 54.5 -124.5t129.5 -43.5t129.5 43.5t54.5 124.5l160 -32 q-15 -131 -105.5 -203.5t-238.5 -72.5t-238.5 72.5t-105.5 203.5z" />
<glyph unicode="&#x490;" horiz-adv-x="1280" d="M240 0v1520h800v320h200v-512h-792v-1328h-208z" />
<glyph unicode="&#x491;" horiz-adv-x="1080" d="M200 0v1200h652v320h188v-504h-640v-1016h-200z" />
<glyph unicode="&#x2000;" horiz-adv-x="970" />
<glyph unicode="&#x2001;" horiz-adv-x="1940" />
<glyph unicode="&#x2002;" horiz-adv-x="970" />
<glyph unicode="&#x2003;" horiz-adv-x="1940" />
<glyph unicode="&#x2004;" horiz-adv-x="646" />
<glyph unicode="&#x2005;" horiz-adv-x="485" />
<glyph unicode="&#x2006;" horiz-adv-x="323" />
<glyph unicode="&#x2007;" horiz-adv-x="323" />
<glyph unicode="&#x2008;" horiz-adv-x="242" />
<glyph unicode="&#x2009;" horiz-adv-x="388" />
<glyph unicode="&#x200a;" horiz-adv-x="107" />
<glyph unicode="&#x2010;" horiz-adv-x="960" d="M140 580v200h680v-200h-680z" />
<glyph unicode="&#x2011;" horiz-adv-x="960" d="M140 580v200h680v-200h-680z" />
<glyph unicode="&#x2012;" horiz-adv-x="960" d="M140 580v200h680v-200h-680z" />
<glyph unicode="&#x2013;" horiz-adv-x="1280" d="M140 584v192h1000v-192h-1000z" />
<glyph unicode="&#x2014;" horiz-adv-x="1760" d="M140 584v192h1480v-192h-1480z" />
<glyph unicode="&#x2018;" horiz-adv-x="560" d="M120 1040v280q0 140 64 210t176 70h40v-136h-40q-53 0 -76.5 -29.5t-23.5 -90.5v-24h140v-280h-280z" />
<glyph unicode="&#x2019;" horiz-adv-x="560" d="M160 960v136h40q53 0 76.5 29.5t23.5 90.5v24h-140v280h280v-280q0 -140 -64 -210t-176 -70h-40z" />
<glyph unicode="&#x201a;" horiz-adv-x="600" d="M160 0v280h280v-280q0 -140 -64 -210t-176 -70h-40v136h40q53 0 76.5 29.5t23.5 90.5v24h-140z" />
<glyph unicode="&#x201c;" horiz-adv-x="1000" d="M120 1040v280q0 140 64 210t176 70h40v-136h-40q-53 0 -76.5 -29.5t-23.5 -90.5v-24h140v-280h-280zM560 1040v280q0 140 64 210t176 70h40v-136h-40q-53 0 -76.5 -29.5t-23.5 -90.5v-24h140v-280h-280z" />
<glyph unicode="&#x201d;" horiz-adv-x="1000" d="M160 960v136h40q53 0 76.5 29.5t23.5 90.5v24h-140v280h280v-280q0 -140 -64 -210t-176 -70h-40zM600 960v136h40q53 0 76.5 29.5t23.5 90.5v24h-140v280h280v-280q0 -140 -64 -210t-176 -70h-40z" />
<glyph unicode="&#x201e;" horiz-adv-x="1040" d="M160 0v280h280v-280q0 -140 -64 -210t-176 -70h-40v136h40q53 0 76.5 29.5t23.5 90.5v24h-140zM600 0v280h280v-280q0 -140 -64 -210t-176 -70h-40v136h40q53 0 76.5 29.5t23.5 90.5v24h-140z" />
<glyph unicode="&#x2022;" d="M420 680q0 129 85.5 214.5t214.5 85.5t214.5 -85.5t85.5 -214.5t-85.5 -214.5t-214.5 -85.5t-214.5 85.5t-85.5 214.5z" />
<glyph unicode="&#x2026;" horiz-adv-x="1720" d="M160 0v280h280v-280h-280zM720 0v280h280v-280h-280zM1280 0v280h280v-280h-280z" />
<glyph unicode="&#x202f;" horiz-adv-x="388" />
<glyph unicode="&#x2039;" horiz-adv-x="840" d="M160 576v208l480 344v-224l-304 -220l304 -220v-232z" />
<glyph unicode="&#x203a;" horiz-adv-x="840" d="M200 232v224l304 220l-304 220v232l480 -344v-208z" />
<glyph unicode="&#x205f;" horiz-adv-x="485" />
<glyph unicode="&#x20ac;" d="M44 528v144h124q-4 28 -4 88t4 88h-124v144h140q51 257 203.5 402.5t376.5 145.5q181 0 314 -91t206 -261l-184 -88q-52 125 -137.5 192.5t-198.5 67.5q-137 0 -235 -98t-137 -270h468v-144h-488q-4 -28 -4 -88t4 -88h488v-144h-468q39 -172 137 -270t235 -98 q113 0 198.5 67.5t137.5 192.5l184 -88q-73 -170 -206 -261t-314 -91q-224 0 -376.5 145.5t-203.5 402.5h-140z" />
<glyph unicode="&#x20bd;" horiz-adv-x="1384" d="M100 280v144h200v176h-200v144h200v776h440q240 0 382 -125t142 -335t-142 -335t-382 -125h-240v-176h564v-144h-564v-280h-200v280h-200zM500 744h184q186 0 281 77.5t95 230.5q0 147 -95 223.5t-281 76.5h-184v-608z" />
<glyph unicode="&#x2122;" horiz-adv-x="1940" d="M80 1372v148h676v-148h-260v-612h-156v612h-260zM864 760v760h224l216 -564l212 564h224v-760h-148v564l-208 -564h-164l-208 564v-564h-148z" />
<glyph unicode="&#x25fc;" horiz-adv-x="1200" d="M0 0v1200h1200v-1200h-1200z" />
</font>
</defs>
</svg>
